Family Katta(2016) Marathi -MP3-XVID – 1CD -WEB Rip

Width : 640 pixels
Height : 272 pixels
Display aspect ratio : 2.35:1
Frame rate : 23.976 fps
Color space : YUV
Chroma subsampling : 4:2:0
Bit depth : 8 bits
Scan type : Progressive
Compression mode : Lossy
Bits/(Pixel*Frame) : 0.169
Stream size : 624 MiB (91%)
Writing library : XviD 67

Audio
ID : 1
Format : MPEG Audio
Format version : Version 2
Format profile : Layer 3
Mode : Joint stereo
Mode extension : MS Stereo
Codec ID : 55
Codec ID/Hint : MP3
Duration : 2h 3mn
Bit rate mode : Constant
Bit rate : 64.0 Kbps
Channel(s) : 2 channels
Sampling rate : 24.0 KHz
Compression mode : Lossy
Stream size : 56.6 MiB (8%)
Alignment : Aligned on interleaves
Interleave, duration : 167 ms (4.00 video frames)
Interleave, preload duration : 216 ms
Title : 
Source : DDR Thanks
 







Sample



Code:
http://rapidpaid.com/b4163b4924aadbd...D_-WEB_Rip.avi

Download Link

RapidPaid

Code:
http://rapidpaid.com/e59c64a5887e71e7/Family_Katta(2016)_-MP3-XVID_-_1CD_-WEB_Rip.avi

FileUD

Code:
http://fileud.com/266504cce8d5aedd/Family_Katta(2016)_-MP3-XVID_-_1CD_-WEB_Rip.avi