Gallit Gondhal Dillit Mujra (2009) 1CD DVDRiP XviD – AXiS


Gallit Gondhal Dillit Mujra (2009) 1CD DVDRiP XviD – AXiS

~*InFo*~

Code:
General

Format                           : AVI
Format/Info                      : Audio Video Interleave
File size                        : 699 MiB
Duration                         : 1h 55mn
Overall bit rate                 : 844 Kbps

Video
Format                           : MPEG-4 Visual
Codec ID                         : XVID
Codec ID/Hint                    : XviD
Duration                         : 1h 55mn
Bit rate                         : 724 Kbps
Width                            : 656 pixels
Height                           : 320 pixels
Frame rate                       : 25.000 fps
Scan type                        : Progressive
Stream size                      : 600 MiB (86%)
Writing library                  : XviD 1.2.1 (UTC 2008-12-04)

Audio
Format                           : MPEG Audio
Format version                   : Version 1
Format profile                   : Layer 3
Codec ID                         : 55
Codec ID/Hint                    : MP3
Duration                         : 1h 55mn
Bit rate mode                    : Variable
Bit rate                         : 107 Kbps
Nominal bit rate                 : 128 Kbps
Channel(s)                       : 2 channels
Sampling rate                    : 48.0 KHz
Resolution                       : 16 bits
Stream size                      : 88.8 MiB (13%)
Alignment                        : Aligned on interleaves
Interleave, duration             : 24 ms (0.60 video frame)
Interleave, preload duration     : 570 ms

Rip Info

Source : DVD @ AXiS
Ripper : AXiS@TeaM.AXiS

~*ScReeNShoTz*~