Goa 350.KM 2015 Untouched DesiDVDScr AVC AAC

Information:

Code:
Info -
Director: Amol Padave

Cast & Crew: Yatin Karyekar, Sanjay Mone, Madhuri Desai, Gaurav Ghatnekar, Dhanashree

Music: Vijay Gatlewar

Media Info -
General
Complete name : Goa 350.KM 2015 Untouched DesiDVDScr AVC AAC [TMB].mp4
Format : MPEG-4
File size : 399 MiB
Duration : 1h 27mn
Overall bit rate mode : Variable
Overall bit rate : 637 Kbps

Video
Format : AVC
Format/Info : Advanced Video Codec
Format profile : Main@L3
Format settings, CABAC : Yes
Format settings, ReFrames : 3 frames
Codec ID : avc1
Codec ID/Info : Advanced Video Coding
Duration : 1h 27mn
Bit rate : 508 Kbps
Width : 600 pixels
Height : 480 pixels
Display aspect ratio : 5:4
Frame rate mode : Constant
Frame rate : 29.970 fps
Color space : YUV
Chroma subsampling : 4:2:0
Bit depth : 8 bits
Scan type : Progressive
Bits/(Pixel*Frame) : 0.059
Stream size : 319 MiB (80%)

Audio
Format : AAC
Format/Info : Advanced Audio Codec
Format profile : LC
Codec ID : 40
Duration : 1h 27mn
Bit rate mode : Variable
Bit rate : 126 Kbps
Channel(s) : 2 channels
Channel positions : Front: L R
Sampling rate : 44.1 KHz
Compression mode : Lossy
Stream size : 78.8 MiB (20%)

Screenshots:







Download Link:

Code: