Mi Shivaji Raje Bhosale Boltoy (2009) 1CD *Pre-DVDRip*


Mi Shivaji Raje Bhosale Boltoy

General
Complete name : Mi.Shivaji.Raje.Bhosale.Boltoy.2009.1CD.Pre-DVDRip.XviD.By.TeaM.RapidStarZMi.Shivaji.Raje.Bho sale.Boltoy.2009.1CD.Pre-DVDRip.XviD.By.TeaM.RapidStarZ.avi
Format : AVI
Format/Info : Audio Video Interleave
File size : 586 MiB
Duration : 2h 22mn
Overall bit rate : 574 Kbps

Video
Format : MPEG-4 Visual
Format profile : Streaming Video@L1
Format settings, BVOP : Yes
Format settings, QPel : No
Format settings, GMC : No warppoints
Format settings, Matrix : Custom
Codec ID : XVID
Codec ID/Hint : XviD
Duration : 2h 22mn
Bit rate : 498 Kbps
Width : 608 pixels
Height : 352 pixels
Display aspect ratio : 16/9
Frame rate : 29.970 fps
Resolution : 24 bits
Colorimetry : 4:2:0
Scan type : Progressive
Bits/(Pixel*Frame) : 0.078
Stream size : 508 MiB (87%)
Writing library : XviD 1.2.1 (UTC 2008-12-04)

Mi Shivaji Raje Bhosale Boltoy

Audio
Format : MPEG Audio
Format version : Version 1
Format profile : Layer 2
Codec ID : 50
Codec ID/Hint : MP1
Duration : 2h 22mn
Bit rate mode : Constant
Bit rate : 64.0 Kbps
Channel(s) : 2 channels
Sampling rate : 48.0 KHz
Resolution : 16 bits
Stream size : 65.3 MiB (11%)
Alignment : Split accross interleaves
Interleave, duration : 33 ms (1.00 video frame)
Interleave, preload duration : 500 ms

Credits to original Ripper..

Code:
http://hotfile.com/dl/7852327/892647c/MSRBB.2009.1CD.PDVDRip.TheGodFatheR.avi.001.html
http://hotfile.com/dl/7852346/a8e60ad/MSRBB.2009.1CD.PDVDRip.TheGodFatheR.avi.002.html
http://hotfile.com/dl/7852374/d96ada4/MSRBB.2009.1CD.PDVDRip.TheGodFatheR.avi.003.html

http://www.megaupload.com/?d=XZTKI502
http://www.megaupload.com/?d=ZQHB3CKQ
http://www.megaupload.com/?d=6Y0F6MTQ

http://www.sendspace.com/file/ftz9u3
http://www.sendspace.com/file/5dl03o
http://www.sendspace.com/file/bgh3jy

http://rapidshare.com/files/250631034/MSRBB.2009.1CD.PDVDRip.TheGodFatheR.avi.001
http://rapidshare.com/files/250631047/MSRBB.2009.1CD.PDVDRip.TheGodFatheR.avi.002
http://rapidshare.com/files/250630951/MSRBB.2009.1CD.PDVDRip.TheGodFatheR.avi.0