Nakshatrache Dene (Suresh Bhat)

Information:

Code:
CD 1:

General
Complete name : CD 1.mp4
Format : MPEG-4
Format profile : Base Media
Codec ID : isom
File size : 640 MiB
Duration : 1h 0mn
Overall bit rate mode : Variable
Overall bit rate : 1 467 Kbps
Encoded date : UTC 2013-01-30 12:45:51
Tagged date : UTC 2013-01-30 12:45:51
Writing application : Lavf51.12.1

Video
ID : 1
Format : MPEG-4 Visual
Format profile : Simple@L1
Format settings, BVOP : No
Format settings, QPel : No
Format settings, GMC : No warppoints
Format settings, Matrix : Default (H.263)
Codec ID : 20
Duration : 1h 0mn
Bit rate : 1 310 Kbps
Width : 384 pixels
Height : 288 pixels
Display aspect ratio : 4:3
Frame rate mode : Constant
Frame rate : 25.000 fps
Color space : YUV
Chroma subsampling : 4:2:0
Bit depth : 8 bits
Scan type : Progressive
Compression mode : Lossy
Bits/(Pixel*Frame) : 0.474
Stream size : 571 MiB (89%)
Writing library : Lavc51.40.4
Encoded date : UTC 2013-01-30 12:45:51
Tagged date : UTC 2013-01-30 12:45:51

Audio
ID : 2
Format : AAC
Format/Info : Advanced Audio Codec
Format profile : LC
Codec ID : 40
Duration : 1h 0mn
Bit rate mode : Variable
Bit rate : 152 Kbps
Channel(s) : 2 channels
Channel positions : Front: L R
Sampling rate : 44.1 KHz
Compression mode : Lossy
Stream size : 66.3 MiB (10%)
Encoded date : UTC 2013-01-30 12:45:51
Tagged date : UTC 2013-01-30 12:45:51

CD 2:

General
Complete name : CD 2.mp4
Format : MPEG-4
Format profile : Base Media
Codec ID : isom
File size : 808 MiB
Duration : 1h 17mn
Overall bit rate mode : Variable
Overall bit rate : 1 464 Kbps
Encoded date : UTC 2013-01-30 13:12:36
Tagged date : UTC 2013-01-30 13:12:36
Writing application : Lavf51.12.1

Video
ID : 1
Format : MPEG-4 Visual
Format profile : Simple@L1
Format settings, BVOP : No
Format settings, QPel : No
Format settings, GMC : No warppoints
Format settings, Matrix : Default (H.263)
Codec ID : 20
Duration : 1h 17mn
Bit rate : 1 310 Kbps
Width : 384 pixels
Height : 288 pixels
Display aspect ratio : 4:3
Frame rate mode : Constant
Frame rate : 25.000 fps
Color space : YUV
Chroma subsampling : 4:2:0
Bit depth : 8 bits
Scan type : Progressive
Compression mode : Lossy
Bits/(Pixel*Frame) : 0.474
Stream size : 722 MiB (89%)
Writing library : Lavc51.40.4
Encoded date : UTC 2013-01-30 13:12:36
Tagged date : UTC 2013-01-30 13:12:36

Audio
ID : 2
Format : AAC
Format/Info : Advanced Audio Codec
Format profile : LC
Codec ID : 40
Duration : 1h 17mn
Bit rate mode : Variable
Bit rate : 152 Kbps
Channel(s) : 2 channels
Channel positions : Front: L R
Sampling rate : 44.1 KHz
Compression mode : Lossy
Stream size : 83.8 MiB (10%)
Encoded date : UTC 2013-01-30 13:12:36
Tagged date : UTC 2013-01-30 13:12:36

Screenshots:






Download Link

CD 1

CD 2