SANDOOK (2015) DVDScr

Information:Code:Movie Information: Movie : Sandook (2015) Producer : Vishwajit Gaikwad and Mandar Keni Directer : Atul Kale Studio : Orangen Entertainment Star Cast : Sumeet Raghvan as Vamanrao Ashtaputre Bhargavi Chirmule as Rukmini Ashtaputre Sharad Ponkshe as Shyamrao Arun Nalawade as Dinkar rao Rahul Mehendale as Bhatkande Ramesh Vani as Murkute Rahul Gore as Rana J. Brandon Hill as Scott Shantanu Gangane as Banya Mangesh Satpute as Deven Siddhesh Prabhakar as Ganu Divesh Medge as Bharat Nandkumar Patil as Bharat Ajit Parab as Tatu Firdaus Mewawala as Billimoria Story : Atul kale Screenplay : Ashish Raikar, Atul Kale and SubodhKhanolkar Music : Ajit-Sameer, Lyrics : Guru Thakur, Vidyadhar Bhave and Ashok Bagwe Singers : Dialogues : Hrishikesh Joshi Director of Photography : Ajit V. Reddy Choreographer : Sujit Kumar Art Director : Mahesh Kudalkar Editor : Sarvesh Parab Costumes : Mahesh Sherla Executive Producer : Vidyadhar Bhave Production Manager : Sound Design : Pramod Chandorkar Genre : Comedy Release Date : 5th June 2015 Synopsis: The movie revolves around Appa Thosar (Vikram Gokhle) and his grandson Vakratund Thosar (Archit Dewadhar) and their bonding with a thread of Mathematics. The movie has beautifully bloomed with various emotions of love, relations, family, principles and faith. Each elements enacted by the actors in this movie are beyond words and limit. File Information: General Complete name : C:sandook 2015 marathi dvdscr by ketanSANDOOK (2015) Marathi DVDScr By KeTaNSANDOOK_P1.mp4 Format : MPEG-4 Codec ID : M4V File size : 891 MiB Duration : 1h 14mn Overall bit rate mode : Variable Overall bit rate : 1 680 Kbps Writing application : Lavf52.32.0 Video ID : 1 Format : AVC Format/Info : Advanced Video Codec Format profile : Baseline@L1.3 Format settings, CABAC : No Format settings, ReFrames : 1 frame Codec ID : avc1 Codec ID/Info : Advanced Video Coding Duration : 1h 14mn Bit rate : 1 612 Kbps Width : 1 280 pixels Height : 720 pixels Display aspect ratio : 16:9 Frame rate mode : Constant Frame rate : 23.976 fps Color space : YUV Chroma subsampling : 4:2:0 Bit depth : 8 bits Scan type : Progressive Bits/(Pixel*Frame) : 0.073 Stream size : 855 MiB (96%) Audio ID : 2 Format : AAC Format/Info : Advanced Audio Codec Format profile : LC Codec ID : 40 Duration : 1h 14mn Bit rate mode : Variable Bit rate : 63.9 Kbps Channel(s) : 2 channels Channel positions : Front: L R Sampling rate : 44.1 KHz Compression mode : Lossy Stream size : 33.9 MiB (4%) General Complete name : C:sandook 2015 marathi dvdscr by ketanSANDOOK (2015) Marathi DVDScr By KeTaNSANDOOK_P2.mp4 Format : MPEG-4 Codec ID : M4V File size : 578 MiB Duration : 1h 4mn Overall bit rate mode : Variable Overall bit rate : 1 243 Kbps Writing application : Lavf52.32.0 Video ID : 1 Format : AVC Format/Info : Advanced Video Codec Format profile : Baseline@L1.3 Format settings, CABAC : No Format settings, ReFrames : 1 frame Codec ID : avc1 Codec ID/Info : Advanced Video Coding Duration : 1h 4mn Bit rate : 1 175 Kbps Width : 1 280 pixels Height : 720 pixels Display aspect ratio : 16:9 Frame rate mode : Constant Frame rate : 23.976 fps Color space : YUV Chroma subsampling : 4:2:0 Bit depth : 8 bits Scan type : Progressive Bits/(Pixel*Frame) : 0.053 Stream size : 546 MiB (95%) Audio ID : 2 Format : AAC Format/Info : Advanced Audio Codec Format profile : LC Codec ID : 40 Duration : 1h 4mn Bit rate mode : Variable Bit rate : 63.9 Kbps Channel(s) : 2 channels Channel positions : Front: L R Sampling rate : 44.1 KHz Compression mode : Lossy Stream size : 29.7 MiB (5%)

Download Link: