Marathi Movie- Urfi 2015 Marathi PDVDRip x264 AAC


Urfi 2015 Marathi PDVDRip x264 AAC

This image has been resized. Click this bar to view the full image. The original image is sized 960×355.

Information:

Code:
General
Complete name : Urfi 2015 PDVDRip x264 AAC [TMB].mp4
Format : MPEG-4
Format profile : Base Media / Version 2
Codec ID : mp42 (mp42/isom)
File size : 839 MiB
Duration : 1h 59mn
Overall bit rate mode : Variable
Overall bit rate : 982 Kbps

Video
Format : AVC
Format/Info : Advanced Video Codec
Format profile : High@L3
Format settings, CABAC : Yes
Format settings, ReFrames : 4 frames
Codec ID : avc1
Codec ID/Info : Advanced Video Coding
Duration : 1h 59mn
Bit rate : 849 Kbps
Width : 640 pixels
Height : 370 pixels
Display aspect ratio : 1.730
Frame rate mode : Variable
Frame rate : 23.931 fps
Minimum frame rate : 3.261 fps
Maximum frame rate : 25.000 fps
Original frame rate : 25.000 fps
Color space : YUV
Chroma subsampling : 4:2:0
Bit depth : 8 bits
Scan type : Progressive
Bits/(Pixel*Frame) : 0.150
Stream size : 726 MiB (86%)
Writing library : x264 core 146 r2538 121396c

Audio
Format : AAC
Format/Info : Advanced Audio Codec
Format profile : LC
Codec ID : 40
Duration : 1h 59mn
Source duration : 1h 59mn
Bit rate mode : Variable
Bit rate : 127 Kbps
Channel(s) : 2 channels
Channel positions : Front: L R
Sampling rate : 48.0 KHz
Frame rate : 46.875 fps (1024 spf)
Compression mode : Lossy
Stream size : 108 MiB (13%)
Source stream size : 108 MiB (13%)

Screenshots:







Download Link:

Code: